<svg xml:space="preserve" width="472mm" height="269mm" version="1.1" style="clip-rule:evenodd;fill-rule:evenodd;image-rendering:optimizeQuality;shape-rendering:geometricPrecision;text-rendering:geometricPrecision" viewBox="0 0 47200 26900" id="layer_svg_scheme_55" sodipodi:docname="55.svg" inkscape:version="1.1 (1:1.1+202105261517+ce6663b3b7)" xmlns:inkscape="http://www.inkscape.org/namespaces/inkscape" xmlns:sodipodi="http://sodipodi.sourceforge.net/DTD/sodipodi-0.dtd" xmlns="http://www.w3.org/2000/svg" xmlns:svg="http://www.w3.org/2000/svg"><sodipodi:namedview
   id="namedview33387"
   pagecolor="#ffffff"
   bordercolor="#666666"
   borderopacity="1.0"
   inkscape:pageshadow="2"
   inkscape:pageopacity="0.0"
   inkscape:pagecheckerboard="0"
   inkscape:document-units="mm"
   showgrid="false"
   inkscape:zoom="0.44846875"
   inkscape:cx="945.43934"
   inkscape:cy="754.79061"
   inkscape:window-width="1920"
   inkscape:window-height="1051"
   inkscape:window-x="0"
   inkscape:window-y="0"
   inkscape:window-maximized="1"
   inkscape:current-layer="Слой_x0020_1" />
 <defs
   id="defs32117">
  <font
   id="FontID0"
   horiz-adv-x="667"
   font-variant="normal"
   style="fill-rule:nonzero"
   font-style="normal"
   font-weight="400"
   horiz-origin-x="0"
   horiz-origin-y="0"
   vert-origin-x="512"
   vert-origin-y="768"
   vert-adv-y="1024">
	<font-face
   font-family="Arial"
   id="font-face32054">
		<font-face-src>
			<font-face-name
   name="Arial" />
		</font-face-src>
	</font-face>
   
   <glyph
   unicode="р"
   horiz-adv-x="556"
   d="M65.9969 -198.997l0 717.994 80.0059 0 0 -68.1653c18.8295,26.3332 40.1629,46.169 64.0001,59.3356 23.6656,13.1666 52.4949,19.8357 86.3318,19.8357 44.3281,0 83.3288,-11.3336 117.166,-34.1724 33.8292,-22.6672 59.3356,-54.8271 76.6675,-96.1678 17.1681,-41.4967 25.834,-86.831 25.834,-136.331 0,-52.8303 -9.50056,-100.497 -28.5017,-143 -19.0011,-42.3313 -46.6682,-74.8344 -83.0012,-97.5016 -36.1692,-22.4956 -74.3352,-33.8292 -114.334,-33.8292 -29.3285,0 -55.6617,6.1621 -78.8281,18.5019 -23.338,12.332 -42.3391,27.8309 -57.3388,46.6604l0 -253.161 -88.0011 0zm80.0059 455.333c0,-66.5039 13.4942,-115.668 40.3267,-147.5 27.004,-31.8323 59.671,-47.8382 98.0008,-47.8382 39.0006,0 72.3384,16.5051 100.005,49.4996 27.8309,33.0023 41.6605,83.9996 41.6605,153.171 0,65.9969 -13.4942,115.333 -40.6621,148.163 -27.1679,32.8385 -59.4994,49.172 -97.1662,49.172 -37.3314,0 -70.3338,-17.5035 -98.9992,-52.3389 -28.8371,-34.9992 -43.1659,-85.661 -43.1659,-152.329z"
   id="glyph32060" />
   <glyph
   unicode="3"
   horiz-adv-x="556"
   d="M41.9909 189.993l88.0042 12.0108c10.1688,-49.9981 27.1794,-86.0118 51.3327,-108.003 24.172,-21.9917 53.8326,-33.0063 89.0004,-33.0063 41.6714,0 76.8392,14.3416 105.165,43.0059 28.3448,28.6643 42.4984,64.1705 42.4984,106.5 0,40.3368 -13.1574,73.6626 -39.6602,99.9962 -26.3336,26.1644 -59.8286,39.3406 -100.673,39.3406 -16.6535,0 -37.3294,-3.34574 -62.1593,-9.83046l9.83046 76.9896c5.84564,-0.65787 10.6763,-0.996203 14.1724,-0.996203 37.6678,0 71.3319,9.83046 101.5,29.341 29.9989,19.4917 44.9983,49.4906 44.9983,89.9966 0,32.1604 -10.9958,58.8324 -32.8371,79.997 -21.8225,21.1646 -49.9981,31.6717 -84.4893,31.6717 -34.3408,0 -62.836,-10.8455 -85.6735,-32.4988 -22.8375,-21.6721 -37.4986,-54.1709 -44.0021,-97.5151l-88.0042 16.0144c10.8455,59.0015 35.1679,104.827 73.3431,137.326 37.9873,32.4988 85.5043,48.6636 142.156,48.6636 39.0023,0 74.9972,-8.32675 107.834,-25.1682 33.0063,-16.6535 58.1745,-39.491 75.5047,-68.3245 17.4993,-29.0027 26.1644,-59.6782 26.1644,-92.177 0,-30.8259 -8.32675,-58.8324 -24.8299,-84.151 -16.6723,-25.3374 -41.333,-45.5058 -73.8318,-60.5052 42.3292,-9.66129 75.1663,-29.9989 98.6617,-60.8436 23.345,-30.6567 34.9987,-69.3207 34.9987,-115.484 0,-62.5164 -22.8375,-115.672 -68.3245,-159.167 -45.675,-43.5134 -103.342,-65.1667 -173.001,-65.1667 -62.836,0 -114.996,18.8339 -156.498,56.3325 -41.6714,37.4986 -65.3359,85.993 -71.1815,145.652z"
   id="glyph32062" />
   <glyph
   unicode="н"
   horiz-adv-x="552"
   d="M66.0054 518.996l87.9952 0 0 -215.99 244.004 0 0 215.99 87.9952 0 0 -518.996 -87.9952 0 0 229.997 -244.004 0 0 -229.997 -87.9952 0 0 518.996z"
   id="glyph32064" />
   <glyph
   unicode="Л"
   horiz-adv-x="656"
   d="M130.003 715.996l446.991 0 0 -715.996 -94.9985 0 0 632.005 -256.994 0 0 -368.842c0,-74.9924 -3.49562,-129.834 -10.4989,-164.669 -7.00333,-34.9924 -21.8325,-61.9897 -44.3302,-81.4998 -22.5098,-19.3287 -51.1763,-28.993 -85.6728,-28.993 -20.9979,0 -46.1687,4.33021 -75.5005,13.0027l17.0064 83.9915c15.4944,-7.99516 28.8237,-11.9988 39.8307,-11.9988 21.3366,0 37.4962,8.00726 48.1645,24.1669 10.6683,16.1718 16.0024,54.1639 16.0024,114.17l0 504.663z"
   id="glyph32066" />
   <glyph
   unicode="0"
   horiz-adv-x="556"
   d="M41.9909 353.333c0,84.5081 8.68388,152.833 26.0141,204.504 17.4993,51.8214 43.3254,91.6695 77.6663,119.488 34.1529,27.8373 77.3279,41.6714 129.337,41.6714 38.3256,0 71.9898,-7.66888 101.162,-23.157 29.0027,-15.5069 53.0055,-37.8369 71.6702,-67.0088 18.6647,-29.0027 33.3258,-64.4901 44.0021,-106.331 10.8267,-41.8405 16.1648,-98.3234 16.1648,-169.167 0,-84.0006 -8.66509,-152.006 -25.8449,-203.658 -17.161,-51.8402 -42.9871,-91.6695 -77.3279,-119.676 -34.1716,-28.0065 -77.4971,-41.9909 -129.826,-41.9909 -68.8508,0 -123.003,24.4916 -162.344,73.6626 -47.1599,59.9977 -70.674,157.156 -70.674,291.662zm90.0154 -0.338333c0,-117.834 13.6649,-196.158 41.1639,-234.822 27.499,-38.8331 61.5014,-58.1745 101.838,-58.1745 40.318,0 74.3205,19.5105 101.819,58.3437 27.499,38.9835 41.1639,117.157 41.1639,234.653 0,117.834 -13.6649,196.177 -41.1639,234.841 -27.3298,38.8331 -61.6706,58.1557 -102.834,58.1557 -40.318,0 -72.6664,-17.161 -96.8197,-51.3327 -30.168,-43.4946 -45.1675,-124.149 -45.1675,-241.664z"
   id="glyph32068" />
   <glyph
   unicode="ы"
   horiz-adv-x="718"
   d="M560.002 518.997l88.0011 0 0 -518.997 -88.0011 0 0 518.997zm-491.003 0l88.0011 0 0 -202.998 110.996 0c72.5022,0 128.172,-14.0012 167.336,-42.1675 39.1645,-28.1663 58.6648,-66.9953 58.6648,-116.495 0,-43.3375 -16.3335,-80.3335 -49.0004,-111.167 -32.6669,-30.8339 -84.8342,-46.169 -156.666,-46.169l-219.332 0 0 518.997zm88.0011 -446.994l92.3301 0c55.5057,0 95.3332,6.83291 118.999,20.4987 23.8372,13.6658 35.67,34.9992 35.67,64.0001 0,22.4956 -8.82975,42.4951 -26.3332,60.1624 -17.6673,17.5035 -56.4963,26.3332 -116.667,26.3332l-103.999 0 0 -170.994z"
   id="glyph32070" />
   <glyph
   unicode="к"
   horiz-adv-x="437"
   d="M65.0015 518.996l87.9952 0 0 -223.998c28.0012,0 47.6686,5.33414 59.0021,16.1718 11.1642,10.6683 27.6625,41.8264 49.6643,93.668 17.3329,40.9918 31.3396,67.9891 42.0079,80.9918 10.8255,13.0027 23.163,21.8325 37.1575,26.332 14.176,4.49955 36.6737,6.83399 67.5053,6.83399l17.6716 0 0 -72.5008 -24.5056 0.508013c-23.163,0 -38.0042,-3.50771 -44.4995,-10.3417 -6.83399,-7.16057 -17.3329,-28.4971 -31.3396,-63.9976 -13.3293,-34.0006 -25.4974,-57.5023 -36.6616,-70.4929 -10.9949,-13.0027 -28.1705,-24.8322 -51.3335,-35.6698 37.8349,-10.1724 75.1618,-45.3341 111.836,-105.667l96.4983 -160.835 -96.6677 0 -95.1678 160.339c-19.1594,32.4887 -35.827,53.8252 -50.003,64.1669 -14.3332,10.3296 -31.3275,15.4944 -51.1642,15.4944l0 -240 -87.9952 0 0 518.996z"
   id="glyph32072" />
   <glyph
   unicode="8"
   horiz-adv-x="556"
   d="M177.493 388.162c-36.5024,13.3454 -63.4939,32.4988 -81.1624,57.1783 -17.4993,24.8299 -26.3336,54.4904 -26.3336,89.0004 0,52.1597 18.6647,95.8235 55.9941,131.33 37.5174,35.4874 87.1772,53.3251 149.336,53.3251 62.3473,0 112.665,-18.1572 150.671,-54.4904 38.0061,-36.3332 57.0091,-80.5045 57.0091,-132.664 0,-33.1754 -8.68388,-62.1781 -26.0141,-86.6697 -17.3302,-24.6795 -43.6638,-43.6638 -79.17,-57.0091 43.8517,-14.3228 77.0084,-37.3294 99.8459,-69.3207 22.8375,-31.8409 34.322,-69.847 34.322,-114.169 0,-61.1819 -21.6533,-112.515 -64.8284,-154.167 -43.3254,-41.6714 -100.165,-62.4977 -170.67,-62.4977 -70.4861,0 -127.326,20.8263 -170.651,62.6668 -43.1751,41.8217 -64.8472,94.0002 -64.8472,156.498 0,46.502 11.8417,85.4855 35.5062,116.819 23.6645,31.5026 57.3287,52.8364 100.992,64.1705zm-17.4993 149.336c0,-34.0025 10.8455,-61.6706 32.3484,-83.1736 21.6533,-21.4842 49.9981,-32.3296 85.166,-32.3296 34.1529,0 61.821,10.6763 83.3239,32.0101 21.503,21.3338 32.1604,47.4982 32.1604,78.4933 0,32.3296 -10.9958,59.509 -33.1566,81.5007 -22.0105,21.9917 -49.829,33.0063 -83.3427,33.0063 -33.8333,0 -61.6518,-10.8455 -83.6623,-32.3484 -21.8225,-21.4842 -32.8371,-47.1599 -32.8371,-77.1588zm-29.0027 -331.003c0,-25.1682 5.84564,-49.3215 17.4993,-72.8356 11.6725,-23.3262 29.341,-41.5022 53.0055,-54.3213 23.4954,-12.8379 48.8328,-19.3414 75.6738,-19.3414 42.3292,0 76.9896,13.4957 104.169,40.506 27.1606,26.9915 40.6564,61.3323 40.6564,103.004 0,42.3292 -14.0032,77.3279 -41.8217,104.996 -28.0065,27.6681 -63.3435,41.5022 -105.842,41.5022 -41.6714,0 -75.8242,-13.6649 -102.834,-41.0135 -26.9915,-27.3298 -40.506,-61.5014 -40.506,-102.496z"
   id="glyph32074" />
   <glyph
   unicode="5"
   horiz-adv-x="556"
   d="M41.9909 188l92.0078 6.99222c6.84185,-44.8291 22.6683,-78.4933 47.329,-101.162 24.6795,-22.4992 54.8476,-33.8333 90.3349,-33.8333 42.8367,0 78.6625,15.9956 107.834,47.8365 29.0027,31.9913 43.4946,74.3393 43.4946,127.007 0,50.1673 -13.8341,89.6583 -41.6526,118.661 -27.8373,29.0027 -64.678,43.4946 -110.503,43.4946 -28.4952,0 -54.0017,-6.50351 -76.67,-19.4917 -22.4992,-13.007 -40.1677,-29.8297 -53.1747,-50.5056l-82.9856 11.992 69.0012 368.012 354.987 0 0 -84.0006 -284.82 0 -38.1753 -193.169c42.8367,30.168 87.835,45.1675 134.845,45.1675 62.3285,0 114.996,-21.6721 157.832,-64.9976 42.8179,-43.3442 64.3209,-99 64.3209,-167.005 0,-64.8284 -18.8339,-120.823 -56.5016,-168.001 -45.8253,-58.0053 -108.492,-86.9892 -187.831,-86.9892 -64.9976,0 -118.003,18.3264 -159.167,54.8288 -41.1639,36.5024 -64.6592,84.8276 -70.5049,145.164z"
   id="glyph32076" />
   <glyph
   unicode="2"
   horiz-adv-x="556"
   d="M503.007 84.0006l0 -84.0006 -474.005 0c-0.676666,21.1646 2.83824,41.5022 10.338,61.1631 12.1612,32.1792 31.6529,64.0014 58.494,95.1656 26.8411,31.1642 65.1667,67.1779 114.996,108.003 77.4971,63.8322 130.164,114.338 157.663,151.667 27.6681,37.3294 41.5022,72.6664 41.5022,105.992 0,34.8483 -12.4995,64.1705 -37.4986,88.1734 -24.9991,23.8337 -57.667,35.8257 -97.8347,35.8257 -42.4984,0 -76.5009,-12.6499 -101.989,-37.9873 -25.5066,-25.1682 -38.3444,-60.1669 -38.6828,-104.996l-89.9966 8.98462c6.16518,67.3471 29.5102,118.68 69.847,154.017 40.4872,35.3182 94.6581,52.9867 162.832,52.9867 68.6628,0 123.153,-19.003 163.152,-57.1595 40.1677,-38.1753 60.1669,-85.5043 60.1669,-141.837 0,-28.6643 -5.82685,-56.84 -17.6497,-84.5081 -11.6725,-27.8185 -31.183,-56.9903 -58.3437,-87.6659 -27.3298,-30.4876 -72.4973,-72.6664 -135.502,-125.992 -52.8364,-44.3404 -86.8388,-74.3393 -101.838,-90.1658 -14.9994,-15.8265 -27.3298,-31.6717 -37.1603,-47.6674l351.509 0z"
   id="glyph32078" />
   <glyph
   unicode="м"
   horiz-adv-x="687"
   d="M69.0051 518.996l135.325 0 137.176 -415.325 151.823 415.325 125.673 0 0 -518.996 -88.0073 0 0 417.829 -152.827 -417.829 -78.6695 0 -144.493 437.835 0 -437.835 -85.9994 0 0 518.996z"
   id="glyph32080" />
   <glyph
   unicode="З"
   horiz-adv-x="604"
   d="M38.0042 201.996l89.9909 23.0057c6.83399,-34.6659 25.1708,-69.3317 54.8412,-103.998 29.8276,-34.6659 69.1624,-51.9988 118.331,-51.9988 50.003,0 89.495,12.8334 118.5,38.6574 28.8358,25.6668 43.3384,56.837 43.3384,93.3414 0,39.3347 -15.1678,70.8316 -45.6728,93.9946 -30.3357,23.3323 -71.8355,35.0045 -124.161,35.0045l-45.1769 0 0 82.9997c43.3384,0 76.5044,2.49168 99.5101,7.49924 22.9936,4.99546 43.3263,17.8288 60.9979,38.5002 17.6595,20.502 26.5014,44.0036 26.5014,70.3357 0,31.0009 -11.9988,58.1675 -36.1657,81.1612 -24.0097,23.0057 -56.6677,34.4965 -97.6716,34.4965 -35.9964,0 -66.6707,-8.99909 -91.9988,-27.1666 -25.3402,-18.1675 -42.8304,-42.1651 -52.664,-71.9927 -9.67644,-29.8397 -14.5026,-52.1681 -14.5026,-66.84l-91.007 21.01c22.3405,151.993 106.005,227.989 250.838,227.989 69.8397,0 124.995,-19.498 165.83,-58.3248 40.8346,-38.8388 61.3366,-84.173 61.3366,-136.172 0,-66.6707 -31.4968,-118.331 -94.5026,-155.005 36.5044,-10.1603 67.0094,-30.8316 91.6722,-61.8325 24.4935,-31.1581 36.831,-68.3278 36.831,-111.666 0,-61.6631 -23.8282,-113.166 -71.4968,-154.666 -47.6686,-41.4998 -110.832,-62.3284 -189.501,-62.3284 -135.337,0 -223.332,71.3275 -263.998,213.995z"
   id="glyph32082" />
   <glyph
   unicode="7"
   horiz-adv-x="556"
   d="M46.9907 623.003l0 84.0006 463.009 0 0 -68.005c-45.5058,-48.4944 -90.8237,-113.003 -135.502,-193.508 -44.8291,-80.4857 -79.3391,-163.321 -103.831,-248.487 -17.4993,-59.8286 -28.8335,-125.672 -33.6641,-197.004l-89.9966 0c0.996203,56.3325 11.992,124.507 33.1566,204.334 21.1646,79.997 51.3327,157.005 90.8424,231.157 39.491,74.1701 81.5007,136.668 125.992,187.512l-350.006 0z"
   id="glyph32084" />
   <glyph
   unicode="с"
   horiz-adv-x="500"
   d="M404.995 189.997l85.9994 -11.9988c-9.49501,-59.1594 -33.4926,-105.328 -72.3314,-138.833 -38.8267,-33.5047 -86.6647,-50.1603 -143.163,-50.1603 -70.8316,0 -127.838,23.163 -170.838,69.489 -43.1569,46.3381 -64.6628,112.67 -64.6628,199.008 0,56.0024 9.33777,104.832 27.8319,146.828 18.5062,41.8385 46.6647,73.3353 84.6689,94.1639 37.8349,21.01 78.9961,31.5089 123.665,31.5089 56.1718,0 102.328,-14.1639 137.998,-42.6731 35.8391,-28.4971 58.8328,-68.993 68.8358,-121.331l-84.9955 -13.0027c-8.1766,34.8352 -22.5098,60.9979 -43.3384,78.6695 -20.6713,17.5023 -45.6607,26.332 -75.0045,26.332 -44.3302,0 -80.3266,-15.8331 -108.158,-47.4992 -27.6746,-31.8355 -41.4998,-81.8264 -41.4998,-150.493 0,-69.6704 13.3293,-120.169 40,-151.678 26.8279,-31.4968 61.6631,-47.3299 104.493,-47.3299 34.6659,0 63.5017,10.4989 86.5074,31.6662 23.163,20.9979 37.8349,53.4986 43.9915,97.3329z"
   id="glyph32086" />
   <glyph
   unicode="а"
   horiz-adv-x="556"
   d="M405.004 64.9976c-32.6679,-27.8373 -64.1705,-47.329 -94.3386,-58.8324 -30.168,-11.5033 -62.4977,-17.161 -97.158,-17.161 -57.0091,0 -100.842,13.8341 -131.499,41.6714 -30.6755,27.6493 -46.0133,63.1555 -46.0133,106.331 0,25.3186 5.84564,48.4944 17.3302,69.4899 11.6725,20.9955 26.8411,37.6678 45.5058,50.3365 18.8339,12.6687 39.8293,22.33 63.3435,28.8335 17.3302,4.49231 43.4946,8.83425 78.3241,13.1762 70.9936,8.32675 123.51,18.4955 157.005,30.1492 0.338333,12.0108 0.488703,19.6797 0.488703,22.8375 0,35.6754 -8.32675,60.8436 -24.9991,75.5047 -22.4992,19.8301 -55.9941,29.6605 -100.335,29.6605 -41.4834,0 -72.1589,-7.33055 -91.8199,-21.8225 -19.8301,-14.5107 -34.3408,-40.1677 -43.8329,-77.1775l-86.0118 12.0108c7.83805,36.8219 20.6759,66.6704 38.664,89.32 18.0068,22.6683 44.0021,40.0173 78.0046,52.3477 33.8333,12.1612 73.3431,18.3264 118.003,18.3264 44.3404,0 80.5045,-5.16898 108.342,-15.6573 27.6681,-10.5071 48.1561,-23.5142 61.1631,-39.3406 12.9882,-15.8265 22.1608,-35.8257 27.499,-59.9977 2.83824,-14.9994 4.32315,-42.0097 4.32315,-80.8428l0 -116.669c0,-81.5007 1.84204,-132.984 5.50731,-154.825 3.49611,-21.8413 10.8267,-42.6676 21.503,-62.6668l-92.0078 0c-8.83425,18.4955 -14.4919,40.1677 -16.9918,64.9976zm-7.01101 195.011c-31.9913,-13.007 -79.997,-24.0029 -143.998,-33.0063 -36.3332,-5.16898 -61.9902,-10.9958 -76.9896,-17.4993 -14.9994,-6.50351 -26.5028,-15.9956 -34.6791,-28.3448 -8.15759,-12.4995 -12.3304,-26.3336 -12.3304,-41.6526 0,-23.1758 8.83425,-42.6676 26.6719,-58.1745 17.8377,-15.5069 43.8329,-23.3262 78.0046,-23.3262 33.8333,0 64.0014,7.33055 90.5041,22.1608 26.3336,14.6611 45.8253,34.8295 58.1557,60.3361 9.51092,19.8301 14.1724,49.0019 14.1724,87.4967l0.488703 32.0101z"
   id="glyph32088" />
   <glyph
   unicode="4"
   horiz-adv-x="556"
   d="M322.995 0l0 171.009 -311.003 0 0 80.9932 326.999 464.005 72.0086 0 0 -464.005 97.0076 0 0 -80.9932 -97.0076 0 0 -171.009 -88.0042 0zm0 252.002l0 322.168 -224.503 -322.168 224.503 0z"
   id="glyph32090" />
   <glyph
   unicode="о"
   horiz-adv-x="556"
   d="M33.0023 259.503c0,95.8324 26.6608,166.829 80.1619,212.998 44.4997,38.3298 98.9992,57.5026 163.171,57.5026 71.1684,0 129.498,-23.338 174.832,-70.0062 45.1627,-46.4966 67.8299,-110.996 67.8299,-193.162 0,-66.6677 -9.99977,-118.999 -29.9993,-157.165 -19.9995,-38.166 -49.1642,-67.8377 -87.4941,-88.9995 -38.1738,-21.1696 -80.0059,-31.6685 -125.169,-31.6685 -72.666,0 -131.339,23.1664 -176.166,69.663 -44.8351,46.5044 -67.1669,113.5 -67.1669,200.838zm89.9979 -0.171603c0,-66.3323 14.5004,-115.996 43.5013,-148.834 29.1647,-32.9945 65.6615,-49.4996 109.834,-49.4996 43.6651,0 79.9981,16.5051 109.163,49.6712 29.0009,33.1662 43.5013,83.6642 43.5013,151.502 0,64.0001 -14.6642,112.493 -43.8289,145.332 -29.1725,32.9945 -65.5055,49.4996 -108.835,49.4996 -44.1721,0 -80.6689,-16.3335 -109.834,-49.172 -29.0009,-32.8307 -43.5013,-82.3304 -43.5013,-148.499z"
   id="glyph32092" />
   <glyph
   unicode="я"
   horiz-adv-x="541"
   d="M475.005 518.996l0 -518.996 -88.0073 0 0 201.996 -50.6683 0c-30.8316,0 -53.8252,-3.99153 -68.993,-12.1681 -15.1678,-8.1645 -37.339,-33.6619 -66.5014,-76.831l-77.339 -112.997 -108.993 0 94.9985 139.329c28.993,42.6731 57.9982,66.6707 86.834,72.1742 -50.1724,6.83399 -87.4992,25.0015 -111.836,54.3332 -24.3363,29.3317 -36.5044,63.163 -36.5044,101.337 0,45.1648 15.8331,81.6571 47.6686,109.658 31.8355,28.1705 78.0042,42.1651 138.337,42.1651l241.004 0zm-88.0073 -72.9967l-124.995 0c-52.3375,0 -86.1687,-8.1645 -101.337,-24.4935 -15.1678,-16.3411 -22.6671,-35.5005 -22.6671,-57.345 0,-30.9888 11.1642,-53.8252 33.5047,-68.3278 22.1591,-14.5026 61.6631,-21.8325 118.331,-21.8325l97.1636 0 0 171.999z"
   id="glyph32094" />
   <glyph
   unicode=" "
   horiz-adv-x="277"
   d=""
   id="glyph32096" />
   <glyph
   unicode="1"
   horiz-adv-x="556"
   d="M371.997 0l-88.0042 0 0 560.336c-21.1646,-20.3376 -49.0019,-40.506 -83.3239,-60.6744 -34.3408,-20.1684 -65.3359,-35.337 -92.6657,-45.3366l0 85.0156c49.1711,22.9879 92.1582,50.9943 128.999,84.0006 36.8219,32.8183 63.0052,64.6592 78.3241,95.6543l56.6708 0 0 -718.996z"
   id="glyph32098" />
   <glyph
   unicode="."
   horiz-adv-x="277"
   d="M90.9949 0l0 100.006 100.006 0 0 -100.006 -100.006 0z"
   id="glyph32100" />
   <glyph
   unicode="л"
   horiz-adv-x="583"
   d="M109.005 518.996l408.999 0 0 -518.5 -88.0073 0 0 445.503 -232.997 0 0 -258.168c0,-60.1633 -1.99577,-99.8367 -5.83006,-119.165 -4.00363,-19.1715 -14.6719,-35.8391 -32.1742,-50.1724 -17.6595,-14.3332 -42.9997,-21.4938 -76.1657,-21.4938 -20.502,0 -44.1609,1.33051 -70.8316,3.83429l0 73.166 38.5002 0c18.1675,0 31.1702,1.83852 38.9961,5.66072 7.83792,3.67705 13.0027,9.67644 15.6758,17.8409 2.49168,8.1645 3.83429,34.6659 3.83429,79.492l0 342.002z"
   id="glyph32102" />
   <glyph
   unicode="и"
   horiz-adv-x="558"
   d="M66.0054 518.996l87.9952 0 0 -395.827 244.5 395.827 94.5026 0 0 -518.996 -88.0073 0 0 393.335 -244.161 -393.335 -94.8292 0 0 518.996z"
   id="glyph32104" />
   <glyph
   unicode="е"
   horiz-adv-x="556"
   d="M420.006 167.995l90.9949 -11.9988c-14.1639,-52.8334 -40.6653,-93.9946 -79.3347,-123.169 -38.6695,-29.1624 -87.9952,-43.8222 -148.171,-43.8222 -75.6577,0 -135.664,23.3323 -179.994,69.997 -44.3302,46.4953 -66.5014,111.993 -66.5014,196.166 0,87.0033 22.3284,154.666 67.1666,202.661 44.8382,48.1766 103.006,72.1742 174.503,72.1742 69.1624,0 125.661,-23.5017 169.495,-70.6743 43.8343,-47.1606 65.8361,-113.493 65.8361,-198.996 0,-5.1648 -0.169338,-13.0027 -0.495918,-23.3323l-386.501 0c3.32628,-56.837 19.3287,-100.502 48.3338,-130.668 28.8237,-30.1663 65.0015,-45.3341 108.158,-45.3341 32.1742,0 59.6674,8.50318 82.3344,25.4974 22.8364,17.0064 40.8346,44.173 54.176,81.4998zm-288.007 141.01l288.999 0c-3.83429,43.665 -14.9985,76.323 -33.166,98.1675 -27.8319,33.8313 -64.1669,50.8255 -108.666,50.8255 -40.3266,0 -74.1699,-13.4986 -101.663,-40.4959 -27.336,-26.9973 -42.5038,-63.163 -45.5035,-108.497z"
   id="glyph32106" />
   <glyph
   unicode="9"
   horiz-adv-x="556"
   d="M54.9979 166.009l84.0006 6.99222c7.16138,-39.6602 20.8263,-68.3433 40.9947,-86.1622 20.1684,-17.8377 46.0133,-26.8411 77.6663,-26.8411 27.0103,0 50.6748,6.16518 71.1815,18.6647 20.488,12.3304 37.1603,28.8335 49.9981,49.6786 12.8191,20.6571 23.6645,48.6636 32.4988,83.8314 8.83425,35.1679 13.1574,70.9936 13.1574,107.496 0,3.83444 -0.169167,9.83046 -0.488703,17.6685 -17.4993,-28.0065 -41.5022,-50.844 -71.8394,-68.1741 -30.3372,-17.4993 -63.3247,-26.1644 -98.6617,-26.1644 -59.1707,0 -109.169,21.503 -150.164,64.5089 -40.8443,42.8179 -61.3511,99.4887 -61.3511,169.824 0,72.6664 21.3338,131.01 64.1705,175.332 42.6676,44.1713 96.1806,66.3321 160.671,66.3321 46.3328,0 88.8312,-12.4995 127.495,-37.6678 38.5136,-24.9991 67.6666,-60.6556 87.6659,-107.158 19.9992,-46.3328 29.9989,-113.511 29.9989,-201.346 0,-91.5003 -9.83046,-164.317 -29.6605,-218.488 -19.8301,-54.3401 -49.4906,-95.5039 -88.6621,-123.83 -39.1715,-28.3448 -84.9968,-42.4984 -137.664,-42.4984 -56.0129,0 -101.669,15.4881 -137.175,46.6524 -35.337,31.1642 -56.6708,74.9972 -63.8322,131.348zm359.009 315.815c0,50.3365 -13.3454,90.3349 -39.9985,119.845 -26.5028,29.4914 -58.8512,44.3216 -96.8385,44.3216 -39.3406,0 -73.3431,-15.8265 -102.007,-47.6486 -28.8335,-31.8409 -43.1563,-73.1739 -43.1563,-123.849 0,-45.487 13.6649,-82.4969 40.8255,-110.823 27.3298,-28.4952 61.3323,-42.6676 101.838,-42.6676 40.6564,0 74.001,14.1724 100.165,42.6676 26.1644,28.326 39.1715,67.8358 39.1715,118.153z"
   id="glyph32108" />
   <glyph
   unicode="у"
   horiz-adv-x="500"
   d="M62.0018 -199.504l-10.003 81.3426c19.3287,-5.1769 35.9964,-7.83792 50.3296,-7.83792 19.6674,0 35.3432,3.33837 47.0033,9.83369 11.8295,6.49531 21.5059,15.6637 29.0051,27.336 5.49138,8.82976 14.4905,30.6622 26.8279,65.6668 1.66919,4.82613 4.17297,11.9988 7.83792,21.4938l-197 520.665 93.9946 0 108.34 -299.667c14.1639,-37.8228 26.6586,-77.8228 37.8349,-119.831 10.1603,39.5041 22.1591,78.5002 36.1657,116.831l110.662 302.667 87.8379 0 -196.166 -527.995c-21.1672,-56.837 -37.6777,-95.8331 -49.5071,-117.339 -15.6637,-28.8237 -33.6619,-49.9909 -53.8373,-63.4896 -20.3326,-13.5107 -44.4995,-20.1754 -72.4887,-20.1754 -17.0064,0 -36.0085,3.50771 -56.837,10.4989z"
   id="glyph32110" />
   <glyph
   unicode="6"
   horiz-adv-x="556"
   d="M499.004 540.995l-87.008 -6.99222c-7.83805,34.4912 -19.003,59.6594 -33.495,75.3355 -23.8337,25.1682 -53.3251,37.6678 -88.3425,37.6678 -28.1568,0 -53.1559,-7.83805 -74.6588,-23.5142 -27.6681,-20.1496 -49.3403,-49.4906 -65.5051,-88.1546 -15.9956,-38.8331 -24.3224,-94.0002 -24.9991,-165.501 21.1646,32.1604 47.1787,56.1633 77.8354,71.6702 30.6755,15.6573 62.6668,23.4954 96.331,23.4954 58.6632,0 108.68,-21.6721 150.013,-64.8284 41.1639,-43.1751 61.821,-98.8309 61.821,-167.343 0,-44.9983 -9.66129,-86.6697 -29.0027,-125.334 -19.4917,-38.664 -45.9945,-68.1553 -79.997,-88.6621 -33.8333,-20.5067 -72.3281,-30.8259 -115.334,-30.8259 -73.1551,0 -133.003,26.9915 -179.335,80.824 -46.1637,53.8326 -69.3207,142.664 -69.3207,266.343 0,138.322 25.6569,238.995 76.8204,301.831 44.6788,54.6596 104.846,81.9894 180.67,81.9894 56.3325,0 102.665,-15.8265 138.679,-47.329 35.9949,-31.5026 57.667,-74.9972 64.8284,-130.672zm-360.005 -308.992c0,-30.3372 6.50351,-59.3399 19.3414,-87.008 12.8191,-27.6681 30.8259,-48.6636 53.6634,-63.1555 22.9879,-14.5107 47.329,-21.8413 73.1551,-21.8413 37.5174,0 69.5087,14.9994 96.0114,44.9983 26.5028,29.9989 39.8293,70.674 39.8293,122.176 0,49.4906 -13.1574,88.4929 -39.3406,116.988 -26.1644,28.514 -59.4902,42.8367 -99.9962,42.8367 -39.6602,0 -73.4935,-14.3228 -101.162,-42.8367 -27.6681,-28.4952 -41.5022,-65.8246 -41.5022,-112.157z"
   id="glyph32112" />
  </font>
</defs>
</svg>
